he Wolverine (2013) EXTENDED BD 5.1 @ 448 Kbps Hindi+Tamil+Telugu+Urdu

View previous topic View next topic Go down

he Wolverine (2013) EXTENDED BD 5.1 @ 448 Kbps Hindi+Tamil+Telugu+Urdu

Post  Admin on Wed Nov 27, 2013 11:02 am

he Wolverine (2013) EXTENDED BD 5.1 @ 448 Kbps Hindi+Tamil+Telugu+Urdu

1- The Wolverine (2013) EXTENDED BD 5.1 @ 448 Kbps Hindi Audio
mega.co.nz #!xY1yXTja!RIo0bDX0EFMdeONnOErQvwL2lccQNkjsH3i1W3luEjo

Audio
Format : AC-3
Format/Info : Audio Coding 3
Mode extension : CM (complete main)
Format settings, Endianness : Big
Duration : 2h 18mn
Bit rate mode : Constant
Bit rate : 448 Kbps
Channel count : 6 channels
Channel positions : Front: L C R, Side: L R, LFE
Sampling rate : 48.0 KHz
Bit depth : 16 bits
Compression mode : Lossy
Stream size : 442 MiB (100%)

2- The Wolverine (2013) EXTENDED BD 5.1 @ 448 Kbps Tamil Audio
mega.co.nz #!hAEAhKjb!YdgENAvEtjlAP5p3soN-NxtPl_V2cYTMfbzGgeh-lhU

Audio
Format : AC-3
Format/Info : Audio Coding 3
Mode extension : CM (complete main)
Format settings, Endianness : Big
Duration : 2h 18mn
Bit rate mode : Constant
Bit rate : 448 Kbps
Channel count : 6 channels
Channel positions : Front: L C R, Side: L R, LFE
Sampling rate : 48.0 KHz
Bit depth : 16 bits
Compression mode : Lossy
Stream size : 442 MiB (100%)

3- The Wolverine (2013) EXTENDED BD 5.1 @ 448 Kbps Telugu Audio
mega.co.nz #!sBlFzLDR!e6mIMzw5z63Fj7thTfMRlxJHqOoMoYq1oD1L_gijY2w

Audio
Format : AC-3
Format/Info : Audio Coding 3
Mode extension : CM (complete main)
Format settings, Endianness : Big
Duration : 2h 18mn
Bit rate mode : Constant
Bit rate : 448 Kbps
Channel count : 6 channels
Channel positions : Front: L C R, Side: L R, LFE
Sampling rate : 48.0 KHz
Bit depth : 16 bits
Compression mode : Lossy
Stream size : 442 MiB (100%)

4- The Wolverine (2013) EXTENDED BD 5.1 @ 448 Kbps Urdu Audio
mega.co.nz #!1Q0EBCRa!SGgSgVHGDj8erXRcZN6vNVKILy9bGiXjCZHqdWAdAPU

Audio
Format : AC-3
Format/Info : Audio Coding 3
Mode extension : CM (complete main)
Format settings, Endianness : Big
Duration : 2h 18mn
Bit rate mode : Constant
Bit rate : 448 Kbps
Channel count : 6 channels
Channel positions : Front: L C R, Side: L R, LFE
Sampling rate : 48.0 KHz
Bit depth : 16 bits
Compression mode : Lossy
Stream size : 442 MiB (100%)
avatar
Admin
Admin

Posts : 38
Points : 116
Reputation : 3
Join date : 2012-08-21

View user profile http://hindidubbed.forumur.net

Back to top Go down

Re: he Wolverine (2013) EXTENDED BD 5.1 @ 448 Kbps Hindi+Tamil+Telugu+Urdu

Post  mwaran on Mon Oct 20, 2014 10:20 am

links r dead pls upload

mwaran

Posts : 1
Points : 1
Reputation : 0
Join date : 2014-10-20

View user profile

Back to top Go down

View previous topic View next topic Back to top

- Similar topics

 
Permissions in this forum:
You cannot reply to topics in this forum