Titanic (1997) Audio Only English | Hindi | Tamil | Telugu

View previous topic View next topic Go down

Titanic (1997) Audio Only English | Hindi | Tamil | Telugu

Post  fatso on Sun Sep 16, 2012 9:03 am

[You must be registered and logged in to see this image.]

Source: 2D BluRay HDChina (Thanks)
Run time: 03:14:49
FPS: 23.976
Bitrate: English (640 Kbps), Hindi | Tamil | Telugu (448 Kbps)
Note: English Convert AC3 from DTS HD MA and Hindi, Tamil, Telugu Used Untouched

Media iNFO (English):
Format : AC-3
Format/Info : Audio Coding 3
File size : 892 MiB
Duration : 3h 14mn
Overall bit rate mode : Constant
Overall bit rate : 640 Kbps

Audio
Format : AC-3
Format/Info : Audio Coding 3
Mode extension : CM (complete main)
Format settings, Endianness : Big
Duration : 3h 14mn
Bit rate mode : Constant
Bit rate : 640 Kbps
Channel(s) : 6 channels
Channel positions : Front: L C R, Side: L R, LFE
Sampling rate : 48.0 KHz
Bit depth : 16 bits
Compression mode : Lossy
Stream size : 892 MiB (100%)

Media iNFO (Hindi | Tamil | Telugu):
Format : AC-3
Format/Info : Audio Coding 3
File size : 624 MiB
Duration : 3h 14mn
Overall bit rate mode : Constant
Overall bit rate : 448 Kbps

Audio
Format : AC-3
Format/Info : Audio Coding 3
Mode extension : CM (complete main)
Format settings, Endianness : Big
Duration : 3h 14mn
Bit rate mode : Constant
Bit rate : 448 Kbps
Channel(s) : 6 channels
Channel positions : Front: L C R, Side: L R, LFE
Sampling rate : 48.0 KHz
Bit depth : 16 bits
Compression mode : Lossy
Stream size : 624 MiB (100%)

Download Links:
rapidgator.net/file/42785600/Titanic_1997_Hindi_6Ch_BD.ac3.html
rapidgator.net/file/42785601/Titanic_1997_Telugu_6Ch_BD.ac3.html
rapidgator.net/file/42785614/Titanic_1997_Tamili_6Ch_BD.ac3.html
rapidgator.net/file/42786693/Titanic_1997_English_6Ch_BD.ac3.html

http://www.sharpfile.com/6xmk7zdq3/Titanic_1997_Hindi_6Ch_BD.ac3.html
http://www.sharpfile.com/g4kb67jdtw/Titanic_1997_Tamili_6Ch_BD.ac3.html
http://www.sharpfile.com/2jghdtzqk/Titanic_1997_Telugu_6Ch_BD.ac3.html
http://www.sharpfile.com/2ywk3j4n/Titanic_1997_English_6Ch_BD.ac3.html

rapidshare.com Titanic_1997_English_6Ch_BD.ac3
rapidshare.com Titanic_1997_Tamili_6Ch_BD.ac3
rapidshare.com Titanic_1997_Hindi_6Ch_BD.ac3
rapidshare.com Titanic_1997_Telugu_6Ch_BD.ac3

Give Credit to SnowDoN and HDChina, Wherever you do share !!
Cheers and Thanks !!

fatso

Posts : 45
Points : 151
Reputation : 14
Join date : 2012-08-21

View user profile

Back to top Go down

all links are dead of titanic

Post  kundanraj40 on Wed Jan 08, 2014 4:55 pm

all links are dead kindly upload once more , thanx

kundanraj40

Posts : 1
Points : 1
Reputation : 0
Join date : 2014-01-08

View user profile

Back to top Go down

View previous topic View next topic Back to top

- Similar topics

 
Permissions in this forum:
You cannot reply to topics in this forum