Iron Man 2 2010 2ch Hindi Audio ~Af@q

View previous topic View next topic Go down

Iron Man 2 2010 2ch Hindi Audio ~Af@q

Post  fatso on Thu Sep 06, 2012 4:18 pm

[You must be registered and logged in to see this image.]

IMDB: [You must be registered and logged in to see this link.]

Info:

Format : AC-3
Format/Info : Audio Coding 3
Mode extension : CM (complete main)
Duration : 2h 4mn 39s
Bit rate mode : Constant
Bit rate : 192 Kbps
Channel(s) : 2 channels
Channel positions : Front: L R
Sampling rate : 48.0 KHz
Bit depth : 16 bits
Compression mode : Lossy
Stream size : 170 MiB

Direct Download Link:
IMDB: [You must be registered and logged in to see this link.]

Info:

Format : AC-3
Format/Info : Audio Coding 3
Mode extension : CM (complete main)
Duration : 2h 4mn 39s
Bit rate mode : Constant
Bit rate : 192 Kbps
Channel(s) : 2 channels
Channel positions : Front: L R
Sampling rate : 48.0 KHz
Bit depth : 16 bits
Compression mode : Lossy
Stream size : 170 MiB

Direct Download Link:IMDB: [You must be registered and logged in to see this link.]

Info:

Format : AC-3
Format/Info : Audio Coding 3
Mode extension : CM (complete main)
Duration : 2h 4mn 39s
Bit rate mode : Constant
Bit rate : 192 Kbps
Channel(s) : 2 channels
Channel positions : Front: L R
Sampling rate : 48.0 KHz
Bit depth : 16 bits
Compression mode : Lossy
Stream size : 170 MiB

Direct Download Link:IMDB: [You must be registered and logged in to see this link.]

Info:

Format : AC-3
Format/Info : Audio Coding 3
Mode extension : CM (complete main)
Duration : 2h 4mn 39s
Bit rate mode : Constant
Bit rate : 192 Kbps
Channel(s) : 2 channels
Channel positions : Front: L R
Sampling rate : 48.0 KHz
Bit depth : 16 bits
Compression mode : Lossy
Stream size : 170 MiB

Direct Download Link:http://cybervila.com/share/iron-man-2-2010-2ch-hindi-audio-meguil.ac3

fatso

Posts : 45
Points : 151
Reputation : 14
Join date : 2012-08-21

View user profile

Back to top Go down

View previous topic View next topic Back to top

- Similar topics

 
Permissions in this forum:
You cannot reply to topics in this forum