Million Dollar Baby (2004) Hindi VCD audio 2ch 224kbps(Untouched)~Af@q~

View previous topic View next topic Go down

Million Dollar Baby (2004) Hindi VCD audio 2ch 224kbps(Untouched)~Af@q~

Post  fatso on Sun Aug 26, 2012 10:57 am

[You must be registered and logged in to see this image.]

CD1

General
Complete name : Million.Dollar.Baby\CD1.ac3
Format : AC-3
Format/Info : Audio Coding 3
File size : 106 MiB
Duration : 1h 6mn
Overall bit rate mode : Constant
Overall bit rate : 224 Kbps

Audio
Format : AC-3
Format/Info : Audio Coding 3
Mode extension : CM (complete main)
Format settings, Endianness : Big
Duration : 1h 6mn
Bit rate mode : Constant
Bit rate : 224 Kbps
Channel(s) : 2 channels
Channel positions : Front: L R
Sampling rate : 44.1 KHz
Bit depth : 16 bits
Compression mode : Lossy
Stream size : 106 MiB (100%)

CD2

General
Complete name : Million.Dollar.Baby\CD2.ac3
Format : AC-3
Format/Info : Audio Coding 3
File size : 106 MiB
Duration : 1h 6mn
Overall bit rate mode : Constant
Overall bit rate : 224 Kbps

Audio
Format : AC-3
Format/Info : Audio Coding 3
Mode extension : CM (complete main)
Format settings, Endianness : Big
Duration : 1h 6mn
Bit rate mode : Constant
Bit rate : 224 Kbps
Channel(s) : 2 channels
Channel positions : Front: L R
Sampling rate : 44.1 KHz
Bit depth : 16 bits
Compression mode : Lossy
Stream size : 106 MiB


VCD framerate 25 fps

Download

fatso

Posts : 45
Points : 151
Reputation : 14
Join date : 2012-08-21

View user profile

Back to top Go down

Re: Million Dollar Baby (2004) Hindi VCD audio 2ch 224kbps(Untouched)~Af@q~

Post  teamsteelxxx on Mon Jan 20, 2014 6:42 am

update the link

teamsteelxxx

Posts : 2
Points : 5
Reputation : 1
Join date : 2013-11-21

View user profile

Back to top Go down

Million Dollar Baby (2004) Hindi VCD audio 2ch 224kbps(Untouched)~Af@q

Post  vivek19085 on Tue Dec 02, 2014 1:52 pm

update the link

vivek19085

Posts : 1
Points : 1
Reputation : 0
Join date : 2014-12-02

View user profile

Back to top Go down

Re: Million Dollar Baby (2004) Hindi VCD audio 2ch 224kbps(Untouched)~Af@q~

Post  Sponsored content


Sponsored content


Back to top Go down

View previous topic View next topic Back to top

- Similar topics

 
Permissions in this forum:
You cannot reply to topics in this forum