Jurassic Park Trilogy Hindi Audio~Af@q~

View previous topic View next topic Go down

Jurassic Park Trilogy Hindi Audio~Af@q~

Post  fatso on Sun Aug 26, 2012 10:30 am

[You must be registered and logged in to see this image.]

Jurassic Park 1



Format : AC-3
Format/Info : Audio Coding 3
Mode extension : CM (complete main)
Codec ID : A_AC3
Duration : 2h 6mn
Bit rate mode : Constant
Bit rate : 192 Kbps
Channel(s) : 2 channels
Channel positions : Front: L R
Sampling rate : 44.1 KHz
Bit depth : 16 bits
Video delay : 4ms
Stream size : 173 MiB (7%)
Title : nsh168810
Language : Hindi

download


[You must be registered and logged in to see this image.]

Jurassic Park 2




Format : AC-3
Format/Info : Audio Coding 3
Mode extension : CM (complete main)
Codec ID : A_AC3
Duration : 2h 8mn
Bit rate mode : Constant
Bit rate : 192 Kbps
Channel(s) : 2 channels
Channel positions : Front: L R
Sampling rate : 44.1 KHz
Bit depth : 16 bits
Video delay : 155ms
Stream size : 177 MiB (7%)
Title : nsh168810
Language : Hindi

download

[You must be registered and logged in to see this image.]

Jurassic Park 3


ID : 3
Format : AC-3
Format/Info : Audio Coding 3
Mode extension : CM (complete main)
Codec ID : A_AC3
Duration : 1h 28mn
Bit rate mode : Constant
Bit rate : 192 Kbps
Channel(s) : 2 channels
Channel positions : Front: L R
Sampling rate : 48.0 KHz
Bit depth : 16 bits
Video delay : 12ms
Stream size : 121 MiB (7%)
Title : nsh168810
Language : Hindi

download

fatso

Posts : 45
Points : 151
Reputation : 14
Join date : 2012-08-21

View user profile

Back to top Go down

jurrassic park 1 link not working....

Post  umeshkanoja on Wed May 01, 2013 5:37 am

jurrassic park 1 link not working....
thank u for sharing hindi audios!!!!!!

umeshkanoja

Posts : 1
Points : 1
Reputation : 0
Join date : 2013-04-27

View user profile

Back to top Go down

View previous topic View next topic Back to top

- Similar topics

 
Permissions in this forum:
You cannot reply to topics in this forum